Ugrás a tartalomhoz

Fotó

Mayans.MC.720p.WEBRip.Hun.Sub 2018data.hu

- - - - - Akció . Amerikai . Bűnügyi

  • Hozzászólás írásához be kell jelentkezni!
6 válasz erre a témára

#1
zotya9106

zotya9106

    Pelenkás

  • Felhasználó
  • Pipa
  • 4
  • 5 Hozzászólás
  • 10 köszönet
  • Offline

Mayans.MC.

MV5BOTY5MzBiNmEtOGE0MS00YzYzLWE3MGYtNmYw

 

 

 

 

Az új történet a Sons of Anarchy után játszódik. A középpontjában a börtönből frissen szabadult EZ Reyes lesz, aki “gyakornok” a Kalifornia/Mexikó határán levő Mayan MC-ben. A börtönbe kerülése előtt még az amerikai álom közelében érezte magát, és a város aranyifja volt, most viszont az új életét kell építse a motoros klub kötelékében.

 

Színészek:

 

Kérlek Jelentkezz be vagy Regisztrálj hogy lásd a rejtett tartalmat.

Kérlek Jelentkezz be vagy Regisztrálj hogy lásd a rejtett tartalmat.

Kérlek Jelentkezz be vagy Regisztrálj hogy lásd a rejtett tartalmat.

Rendező,Író:

Kérlek Jelentkezz be vagy Regisztrálj hogy lásd a rejtett tartalmat.

Kérlek Jelentkezz be vagy Regisztrálj hogy lásd a rejtett tartalmat.

 

Format                      : Matroska

Format version              : Version 4 / Version 2
File size                   : 1.52 GiB
Duration                    : 1 h 8 min
Overall bit rate            : 3 170 kb/s
Encoded date                : UTC 2018-09-01 19:45:34
Writing application         : mkvmerge v13.0.0 ('The Juggler') 64bit
Writing library             : libebml v1.3.4 + libmatroska v1.4.5
 
Video
ID                          : 1
Format                      : AVC
Format/Info                 : Advanced Video Codec
Format profile              : [email protected]
Format settings             : CABAC / 5 Ref Frames
Format settings, CABAC      : Yes
Format settings, ReFrames   : 5 frames
Codec ID                    : V_MPEG4/ISO/AVC
Duration                    : 1 h 8 min
Bit rate                    : 3 041 kb/s
Width                       : 1 280 pixels
Height                      : 720 pixels
Display aspect ratio        : 16:9
Frame rate mode             : Constant
Frame rate                  : 23.976 (23976/1000) FPS
Color space                 : YUV
Chroma subsampling          : 4:2:0
Bit depth                   : 8 bits
Scan type                   : Progressive
Bits/(Pixel*Frame)          : 0.138
Stream size                 : 1.46 GiB (96%)
 
Default                     : Yes
Forced                      : No
Color range                 : Limited
Matrix coefficients         : BT.709
 
Audio
ID                          : 2
Format                      : AAC LC SBR
Format/Info                 : Advanced Audio Codec Low Complexity with Spectral Band Replication
Commercial name             : HE-AAC
Format settings             : Implicit
Codec ID                    : A_AAC-2
Duration                    : 1 h 8 min
Bit rate                    : 127 kb/s
Channel(s)                  : 2 channels
Channel layout              : L R
Sampling rate               : 48.0 kHz
Frame rate                  : 23.438 FPS (2048 SPF)
Compression mode            : Lossy
Stream size                 : 62.4 MiB (4%)
Language                    : English
Default                     : Yes
Forced                      : No
 
Text
ID                          : 3
Format                      : UTF-8
Codec ID                    : S_TEXT/UTF8
Codec ID/Info               : UTF-8 Plain Text
Duration                    : 1 h 7 min
Bit rate                    : 58 b/s
Count of elements           : 865
Stream size                 : 29.0 KiB (0%)
Language                    : English
Default                     : No
Forced                      : No
 
 
1. Rész
 

Kérlek Jelentkezz be vagy Regisztrálj hogy lásd a rejtett tartalmat.

 
Felirat:

Kérlek Jelentkezz be vagy Regisztrálj hogy lásd a rejtett tartalmat.

 
 

2.Rész

Kérlek Jelentkezz be vagy Regisztrálj hogy lásd a rejtett tartalmat.

Kérlek Jelentkezz be vagy Regisztrálj hogy lásd a rejtett tartalmat.

Kérlek Jelentkezz be vagy Regisztrálj hogy lásd a rejtett tartalmat.

Kérlek Jelentkezz be vagy Regisztrálj hogy lásd a rejtett tartalmat.

Kérlek Jelentkezz be vagy Regisztrálj hogy lásd a rejtett tartalmat.

Kérlek Jelentkezz be vagy Regisztrálj hogy lásd a rejtett tartalmat.

Kérlek Jelentkezz be vagy Regisztrálj hogy lásd a rejtett tartalmat.

Kérlek Jelentkezz be vagy Regisztrálj hogy lásd a rejtett tartalmat.

Kérlek Jelentkezz be vagy Regisztrálj hogy lásd a rejtett tartalmat.

Kérlek Jelentkezz be vagy Regisztrálj hogy lásd a rejtett tartalmat.

Kérlek Jelentkezz be vagy Regisztrálj hogy lásd a rejtett tartalmat.

Kérlek Jelentkezz be vagy Regisztrálj hogy lásd a rejtett tartalmat.

Kérlek Jelentkezz be vagy Regisztrálj hogy lásd a rejtett tartalmat.

Kérlek Jelentkezz be vagy Regisztrálj hogy lásd a rejtett tartalmat.

 
 
Felirat:
 

Kérlek Jelentkezz be vagy Regisztrálj hogy lásd a rejtett tartalmat.

 
3.Rész
 

  • 2

Megköszönte 10 Felhasználó:
dante56 , FateR05 , teko1 , QPali , femmu , veyron1 , toncsi64 , aproszemu , Tyereskova , janee02

#2
Tyereskova

Tyereskova

    Totyogó

  • Felhasználó
  • Pipa
  • 0
  • 3 Hozzászólás
  • 0 köszönet
  • Offline

Üdv., a második részből nem hiányoznak részek?


  • 0

#3
zotya9106

zotya9106

    Pelenkás

  • Felhasználó
  • Pipa
  • 4
  • 5 Hozzászólás
  • 10 köszönet
  • Offline

Üdv., a második részből nem hiányoznak részek?

javítva


  • 0

#4
janee02

janee02

    Zsebibaba

  • Törzstag
  • PipaPipa
  • 15
  • 41 Hozzászólás
  • 0 köszönet
  • Offline

Valami ok miatt nem adja hozzá a feliratot!


  • 0

#5
zotya9106

zotya9106

    Pelenkás

  • Felhasználó
  • Pipa
  • 4
  • 5 Hozzászólás
  • 10 köszönet
  • Offline

ötödik  rész hozzá adva


  • 1

#6
veyron1

veyron1

    Totyogó

  • Felhasználó
  • Pipa
  • 1
  • 3 Hozzászólás
  • 0 köszönet
  • Offline

Valami ok miatt nem adja hozzá a feliratot!

a film címének és a feliratnak egyeznie kell.nevezd át a feliratot a film címére


  • 0

#7
zotya9106

zotya9106

    Pelenkás

  • Felhasználó
  • Pipa
  • 4
  • 5 Hozzászólás
  • 10 köszönet
  • Offline

hatodik évad fent van felirattal


  • 1




0 felhasználó olvassa ezt a témát.

0 felhasználó, 0 vendég, 0 anonim felhasználó